osu file format v14

[General]
AudioFilename: Ren'ai Circuration -CELLON.remix-.mp3
AudioLeadIn: 1500
PreviewTime: 76121
Countdown: 0
SampleSet: Normal
StackLeniency: 0.7
Mode: 1
LetterboxInBreaks: 0
WidescreenStoryboard: 1

[Editor]
DistanceSpacing: 0.6
BeatDivisor: 1
GridSize: 4
TimelineZoom: 1.7

[Metadata]
Title:Ren'ai Circuration -CELLON.Remix-
TitleUnicode:恋愛サーキュレーション -CELLON.Remix-
Artist:Hanazawa Kana
ArtistUnicode:花澤 香菜
Creator:_Rise
Version:Kantan
Source:化物語
Tags:anime tasuke912
BeatmapID:837772
BeatmapSetID:379085

[Difficulty]
HPDrainRate:4
CircleSize:5
OverallDifficulty:4
ApproachRate:5
SliderMultiplier:1.4
SliderTickRate:1

[Events]
//Background and Video events
0,0,"bg.jpg",0,80
//Break Periods
2,190572,197172
//Storyboard Layer 0 (Background)
//Storyboard Layer 1 (Fail)
//Storyboard Layer 2 (Pass)
//Storyboard Layer 3 (Foreground)
//Storyboard Sound Samples

[TimingPoints]
2372,500,4,1,0,80,1,0
4372,-100,4,1,0,100,0,1
19872,-100,4,1,0,100,0,0
20372,-100,4,1,0,100,0,1
28372,-100,4,1,0,100,0,0
76372,-100,4,1,0,100,0,1
99872,-100,4,1,0,100,0,0
100372,-100,4,1,0,100,0,1
108372,-100,4,1,0,100,0,0
156372,-100,4,1,0,100,0,1
162372,-100,4,1,0,100,0,0
164372,-100,4,1,0,100,0,1
170372,-100,4,1,0,100,0,0
172372,-100,4,1,0,100,0,1
179372,-100,4,1,0,100,0,0
180372,-100,4,1,0,100,0,1
188372,-100,4,1,0,100,0,0
222372,-100,4,1,0,100,0,1
229872,-100,4,1,0,100,0,0
230372,-100,4,1,0,100,0,1
252372,-100,4,1,0,100,0,0

[HitObjects]
256,192,2372,12,0,3872,0:0:0:0:
260,192,4372,5,4,0:0:0:0:
260,192,4872,1,0,0:0:0:0:
260,192,5372,1,0,0:0:0:0:
260,192,6372,1,2,0:0:0:0:
260,192,6872,1,2,0:0:0:0:
260,192,7372,1,2,0:0:0:0:
260,192,8372,1,0,0:0:0:0:
260,192,8872,1,0,0:0:0:0:
260,192,9372,1,2,0:0:0:0:
260,192,9872,1,2,0:0:0:0:
260,192,10372,1,0,0:0:0:0:
260,192,10872,1,0,0:0:0:0:
260,192,11372,1,0,0:0:0:0:
260,192,11872,1,2,0:0:0:0:
260,192,12372,1,4,0:0:0:0:
260,192,13372,1,0,0:0:0:0:
260,192,14372,1,0,0:0:0:0:
260,192,14872,1,0,0:0:0:0:
256,188,15372,1,2,0:0:0:0:
256,188,16372,1,0,0:0:0:0:
256,188,16872,1,2,0:0:0:0:
256,188,17372,1,0,0:0:0:0:
256,188,17872,1,2,0:0:0:0:
256,188,18372,1,0,0:0:0:0:
256,188,18872,1,2,0:0:0:0:
256,188,19372,1,0,0:0:0:0:
260,192,20372,1,4,0:0:0:0:
260,192,20872,1,0,0:0:0:0:
260,192,21372,1,0,0:0:0:0:
260,192,22372,1,0,0:0:0:0:
260,192,22872,1,0,0:0:0:0:
260,192,23372,1,2,0:0:0:0:
260,192,24372,1,0,0:0:0:0:
260,192,24872,1,2,0:0:0:0:
260,192,25372,1,0,0:0:0:0:
260,192,25872,1,2,0:0:0:0:
260,192,26372,1,0,0:0:0:0:
260,192,26872,1,0,0:0:0:0:
260,192,27372,1,0,0:0:0:0:
260,192,28372,1,4,0:0:0:0:
260,192,29372,1,0,0:0:0:0:
260,192,30372,1,0,0:0:0:0:
260,192,31372,1,0,0:0:0:0:
260,192,32372,1,2,0:0:0:0:
260,192,33372,1,2,0:0:0:0:
260,192,34372,1,0,0:0:0:0:
256,192,35372,1,0,0:0:0:0:
256,192,35872,1,0,0:0:0:0:
256,192,36372,1,0,0:0:0:0:
256,192,37372,1,2,0:0:0:0:
256,192,38372,1,0,0:0:0:0:
256,192,38872,1,0,0:0:0:0:
256,192,39372,1,2,0:0:0:0:
256,192,40372,1,0,0:0:0:0:
256,192,41372,1,2,0:0:0:0:
256,192,42372,1,0,0:0:0:0:
256,192,43372,1,4,0:0:0:0:
256,192,43872,1,4,0:0:0:0:
256,192,44372,1,4,0:0:0:0:
256,192,45372,1,0,0:0:0:0:
256,192,46372,1,0,0:0:0:0:
256,192,47372,1,0,0:0:0:0:
256,192,47872,1,2,0:0:0:0:
256,192,48372,1,0,0:0:0:0:
256,192,48872,1,0,0:0:0:0:
256,192,49372,1,2,0:0:0:0:
256,192,49872,1,2,0:0:0:0:
256,192,50372,1,0,0:0:0:0:
256,192,51872,1,14,0:0:0:0:
260,192,52372,1,0,0:0:0:0:
260,192,53372,1,0,0:0:0:0:
260,192,54372,1,0,0:0:0:0:
260,192,55372,1,0,0:0:0:0:
260,192,55872,1,2,0:0:0:0:
260,192,56372,1,0,0:0:0:0:
260,192,56872,1,0,0:0:0:0:
260,192,57372,1,2,0:0:0:0:
260,192,57872,1,2,0:0:0:0:
260,192,58372,1,0,0:0:0:0:
260,192,58872,1,0,0:0:0:0:
260,192,59372,1,0,0:0:0:0:
260,192,60372,1,4,0:0:0:0:
260,192,61372,1,0,0:0:0:0:
260,192,62372,1,0,0:0:0:0:
260,192,62872,1,2,0:0:0:0:
260,192,63372,1,0,0:0:0:0:
260,192,64372,1,2,0:0:0:0:
260,192,65372,1,0,0:0:0:0:
260,192,66372,1,2,0:0:0:0:
260,192,66872,1,0,0:0:0:0:
260,192,67372,1,2,0:0:0:0:
260,192,68372,1,0,0:0:0:0:
260,192,69372,1,2,0:0:0:0:
260,192,70372,1,0,0:0:0:0:
260,192,70872,1,2,0:0:0:0:
260,192,71372,1,0,0:0:0:0:
260,192,72372,1,2,0:0:0:0:
260,192,73372,1,2,0:0:0:0:
260,192,74372,1,0,0:0:0:0:
260,192,74872,1,0,0:0:0:0:
260,192,75372,1,14,0:0:0:0:
260,192,76372,1,4,0:0:0:0:
260,192,76872,1,0,0:0:0:0:
260,192,77372,1,0,0:0:0:0:
260,192,78372,1,2,0:0:0:0:
260,192,78872,1,2,0:0:0:0:
260,192,79372,1,2,0:0:0:0:
260,192,80372,1,0,0:0:0:0:
260,192,80872,1,0,0:0:0:0:
260,192,81372,1,2,0:0:0:0:
260,192,81872,1,2,0:0:0:0:
260,192,82372,1,0,0:0:0:0:
260,192,82872,1,0,0:0:0:0:
260,192,83372,1,2,0:0:0:0:
260,192,84372,1,0,0:0:0:0:
260,192,84872,1,0,0:0:0:0:
260,192,85372,1,0,0:0:0:0:
260,192,86372,1,2,0:0:0:0:
260,192,86872,1,2,0:0:0:0:
260,192,87372,1,2,0:0:0:0:
260,192,88372,1,0,0:0:0:0:
260,192,88872,1,0,0:0:0:0:
260,192,89372,1,2,0:0:0:0:
260,192,89872,1,2,0:0:0:0:
260,192,90372,1,0,0:0:0:0:
260,192,90872,1,0,0:0:0:0:
260,192,91372,1,0,0:0:0:0:
260,192,91872,1,14,0:0:0:0:
256,188,92372,1,4,0:0:0:0:
256,188,93372,1,0,0:0:0:0:
256,188,94372,1,0,0:0:0:0:
256,188,95372,1,0,0:0:0:0:
256,188,95872,1,2,0:0:0:0:
256,188,96372,1,0,0:0:0:0:
256,188,97372,1,2,0:0:0:0:
256,188,97872,1,2,0:0:0:0:
256,188,98372,1,0,0:0:0:0:
256,188,98872,1,0,0:0:0:0:
256,188,99372,1,0,0:0:0:0:
256,188,100372,1,4,0:0:0:0:
256,188,101372,1,0,0:0:0:0:
256,188,102372,1,0,0:0:0:0:
256,188,103372,1,0,0:0:0:0:
256,188,103872,1,2,0:0:0:0:
256,188,104372,1,0,0:0:0:0:
256,188,105372,1,2,0:0:0:0:
256,188,105872,1,2,0:0:0:0:
256,188,106372,1,0,0:0:0:0:
256,188,106872,1,0,0:0:0:0:
256,188,107372,1,0,0:0:0:0:
256,192,107872,1,14,0:0:0:0:
256,188,108372,1,4,0:0:0:0:
256,188,109372,1,0,0:0:0:0:
256,188,110372,1,0,0:0:0:0:
256,188,110872,1,0,0:0:0:0:
256,188,111372,1,2,0:0:0:0:
256,188,112372,1,0,0:0:0:0:
256,188,113372,1,2,0:0:0:0:
256,188,114372,1,0,0:0:0:0:
256,188,115372,1,0,0:0:0:0:
256,188,115872,1,2,0:0:0:0:
252,192,116372,1,0,0:0:0:0:
252,192,117372,1,4,0:0:0:0:
252,192,118372,1,2,0:0:0:0:
252,192,119372,1,14,0:0:0:0:
252,192,120372,1,0,0:0:0:0:
252,192,120872,1,2,0:0:0:0:
252,192,121372,1,0,0:0:0:0:
252,192,121872,1,2,0:0:0:0:
252,192,122372,1,0,0:0:0:0:
252,192,122872,1,2,0:0:0:0:
252,192,123372,1,0,0:0:0:0:
252,192,124372,1,4,0:0:0:0:
252,192,124872,1,2,0:0:0:0:
252,192,125872,1,2,0:0:0:0:
252,192,126872,1,2,0:0:0:0:
252,192,127872,1,2,0:0:0:0:
252,192,128872,1,2,0:0:0:0:
252,192,129872,1,2,0:0:0:0:
252,192,130872,1,2,0:0:0:0:
252,192,131872,1,14,0:0:0:0:
252,192,132372,1,0,0:0:0:0:
252,192,133372,1,2,0:0:0:0:
252,192,134372,1,0,0:0:0:0:
252,192,134872,1,0,0:0:0:0:
252,192,135372,1,2,0:0:0:0:
252,192,136372,1,0,0:0:0:0:
252,192,136872,1,0,0:0:0:0:
252,192,137372,1,2,0:0:0:0:
252,192,137872,1,2,0:0:0:0:
252,192,138372,1,0,0:0:0:0:
252,192,138872,1,0,0:0:0:0:
252,192,139372,1,0,0:0:0:0:
252,192,140372,1,4,0:0:0:0:
252,192,141372,1,2,0:0:0:0:
252,192,142372,1,0,0:0:0:0:
252,192,142872,1,2,0:0:0:0:
252,192,143372,1,0,0:0:0:0:
252,192,144372,1,0,0:0:0:0:
252,192,145372,1,2,0:0:0:0:
252,192,146372,1,0,0:0:0:0:
256,192,147372,1,0,0:0:0:0:
256,192,147872,1,14,0:0:0:0:
256,192,148372,1,0,0:0:0:0:
256,192,149372,1,2,0:0:0:0:
256,192,150372,1,0,0:0:0:0:
256,192,150872,1,0,0:0:0:0:
256,192,151372,1,2,0:0:0:0:
256,192,152372,1,0,0:0:0:0:
256,192,153372,1,2,0:0:0:0:
256,192,154372,1,0,0:0:0:0:
256,192,154872,1,2,0:0:0:0:
256,192,155372,1,0,0:0:0:0:
256,192,155872,1,2,0:0:0:0:
256,192,156372,1,4,0:0:0:0:
256,192,157372,1,0,0:0:0:0:
256,192,157872,1,2,0:0:0:0:
256,192,158372,1,0,0:0:0:0:
256,192,158872,1,2,0:0:0:0:
256,192,159372,1,0,0:0:0:0:
256,192,160372,1,0,0:0:0:0:
256,192,160872,1,2,0:0:0:0:
256,192,161372,1,0,0:0:0:0:
256,192,161872,1,2,0:0:0:0:
256,192,162372,1,0,0:0:0:0:
256,192,163372,1,0,0:0:0:0:
256,192,164372,1,4,0:0:0:0:
256,192,165372,1,0,0:0:0:0:
256,192,165872,1,2,0:0:0:0:
256,192,166372,1,0,0:0:0:0:
256,192,166872,1,2,0:0:0:0:
256,192,167372,1,0,0:0:0:0:
256,192,168372,1,0,0:0:0:0:
256,192,168872,1,2,0:0:0:0:
256,192,169372,1,0,0:0:0:0:
256,192,170372,1,2,0:0:0:0:
256,192,170872,1,0,0:0:0:0:
256,192,171372,1,0,0:0:0:0:
256,192,171872,1,0,0:0:0:0:
256,192,172372,1,4,0:0:0:0:
256,192,173372,1,0,0:0:0:0:
256,192,173872,1,2,0:0:0:0:
256,192,174372,1,0,0:0:0:0:
256,192,174872,1,2,0:0:0:0:
256,192,175372,1,0,0:0:0:0:
256,192,176372,1,0,0:0:0:0:
256,192,176872,1,2,0:0:0:0:
256,192,177372,1,0,0:0:0:0:
256,192,177872,1,2,0:0:0:0:
256,192,178372,1,0,0:0:0:0:
256,192,178872,1,2,0:0:0:0:
256,188,179372,1,0,0:0:0:0:
256,188,180372,1,4,0:0:0:0:
256,188,181372,1,0,0:0:0:0:
256,188,181872,1,2,0:0:0:0:
256,188,182372,1,0,0:0:0:0:
256,188,182872,1,2,0:0:0:0:
256,188,183372,1,0,0:0:0:0:
256,188,184372,1,0,0:0:0:0:
256,188,184872,1,2,0:0:0:0:
256,188,185372,1,0,0:0:0:0:
256,188,185872,1,2,0:0:0:0:
256,188,186372,1,0,0:0:0:0:
256,188,186872,1,0,0:0:0:0:
256,188,187372,1,0,0:0:0:0:
256,188,187872,1,0,0:0:0:0:
256,192,188372,12,0,189872,0:0:0:0:
256,192,190372,5,4,0:0:0:0:
260,192,198372,5,0,0:0:0:0:
260,192,199372,1,2,0:0:0:0:
260,192,200372,1,0,0:0:0:0:
260,192,200872,1,0,0:0:0:0:
260,192,201372,1,2,0:0:0:0:
260,192,202372,1,0,0:0:0:0:
260,192,202872,1,0,0:0:0:0:
260,192,203372,1,2,0:0:0:0:
260,192,203872,1,2,0:0:0:0:
260,192,204372,1,0,0:0:0:0:
260,192,204872,1,0,0:0:0:0:
260,192,205372,1,0,0:0:0:0:
252,188,206372,1,0,0:0:0:0:
252,188,207372,1,2,0:0:0:0:
252,188,208372,1,0,0:0:0:0:
252,188,208872,1,2,0:0:0:0:
252,188,209372,1,0,0:0:0:0:
252,188,210372,1,2,0:0:0:0:
252,188,211372,1,0,0:0:0:0:
252,188,212372,1,2,0:0:0:0:
252,188,212872,1,0,0:0:0:0:
252,188,213372,1,2,0:0:0:0:
252,188,214372,1,0,0:0:0:0:
252,188,215372,1,2,0:0:0:0:
252,188,216372,1,0,0:0:0:0:
252,188,216872,1,2,0:0:0:0:
252,188,217372,1,0,0:0:0:0:
252,188,218372,1,2,0:0:0:0:
252,188,219372,1,2,0:0:0:0:
256,192,219872,1,0,0:0:0:0:
256,192,220372,1,2,0:0:0:0:
256,192,220872,1,0,0:0:0:0:
256,192,221372,1,2,0:0:0:0:
256,192,222372,1,4,0:0:0:0:
256,192,223372,1,2,0:0:0:0:
256,192,224372,1,0,0:0:0:0:
256,192,224872,1,0,0:0:0:0:
256,192,225372,1,2,0:0:0:0:
256,192,225872,1,2,0:0:0:0:
256,192,226372,1,0,0:0:0:0:
256,192,227372,1,2,0:0:0:0:
256,192,227872,1,2,0:0:0:0:
256,192,228372,1,0,0:0:0:0:
256,192,228872,1,0,0:0:0:0:
256,192,229372,1,0,0:0:0:0:
256,192,230372,1,0,0:0:0:0:
256,192,231372,1,2,0:0:0:0:
256,192,232372,1,0,0:0:0:0:
256,192,232872,1,2,0:0:0:0:
256,192,233372,1,0,0:0:0:0:
256,192,233872,1,2,0:0:0:0:
256,192,234372,1,0,0:0:0:0:
256,192,235372,1,2,0:0:0:0:
256,192,236372,1,0,0:0:0:0:
256,192,236872,1,0,0:0:0:0:
256,192,237372,1,0,0:0:0:0:
256,192,237872,1,2,0:0:0:0:
260,192,238372,1,4,0:0:0:0:
260,192,238872,1,0,0:0:0:0:
260,192,239372,1,0,0:0:0:0:
260,192,240372,1,2,0:0:0:0:
260,192,240872,1,2,0:0:0:0:
260,192,241372,1,2,0:0:0:0:
260,192,242372,1,0,0:0:0:0:
260,192,242872,1,0,0:0:0:0:
260,192,243372,1,2,0:0:0:0:
260,192,243872,1,2,0:0:0:0:
260,192,244372,1,0,0:0:0:0:
260,192,244872,1,0,0:0:0:0:
260,192,245372,1,2,0:0:0:0:
260,192,246372,1,0,0:0:0:0:
260,192,246872,1,0,0:0:0:0:
260,192,247372,1,4,0:0:0:0:
260,192,248372,1,2,0:0:0:0:
260,192,248872,1,2,0:0:0:0:
260,192,249372,1,14,0:0:0:0:
260,192,250372,1,0,0:0:0:0:
260,192,250872,1,0,0:0:0:0:
260,192,251372,1,2,0:0:0:0:
260,192,251872,1,2,0:0:0:0:
260,192,252372,1,4,0:0:0:0:
